Bloodsworth An In.. | Watch Movie | Iniciar sesión usando Facebook

Скачать порно через торрент [PJGirls.com] Nicol & Gina Devine - An Unexpected Helpmate UnionPeer.org бесплатно онлайн HD качество

Скачать новое порно 2015, 2014 новинки через торрент UnionPeer.org

Порно торрент бесплатно ЮнионПир.орг

Статистика раздачи
Размер:  586 MB   |    Зарегистрирован:  4 года 8 месяцев   |    .torrent скачан:  1143 раза   |   
Раздают:  1  
   
загрузка...
 
Автор Сообщение

LinGr

avatar LinGr


Nicol & Gina Devine - An Unexpected Helpmate
PJGirls.com 2013 г.
All Girl, Fisting, Gaping, Close Ups, Breasts, Shaved

Тип HD видео: 1080p
Формат видео: MPEG
Видео кодек: MPEG2
Аудио кодек: MPEG Audio

Продолжительность: 00:06:40
Видео: MPEG Video (MPEG Video 2), 12.3 Mbps, 25.000 fps
Аудио: MPEG Audio (MPEG Audio 2), 128 Kbps, 48.0 KHz
Format : MPEG-PS
File size : 586 MiB
Duration : 6mn 40s
Overall bit rate : 12.3 Mbps

Video
ID : 224 (0xE0)
Format : MPEG Video
Format version : Version 2
Format profile : [email protected]
Format settings, BVOP : Yes
Format settings, Matrix : Default
Duration : 6mn 40s
Bit rate mode : Variable
Bit rate : 11.7 Mbps
Nominal bit rate : 15.0 Mbps
Width : 1 920 pixels
Height : 1 080 pixels
Display aspect ratio : 16:9
Frame rate : 25.000 fps
Standard : Component
Resolution : 8 bits
Colorimetry : 4:2:0
Scan type : Interlaced
Scan order : Top Field First
Bits/(Pixel*Frame) : 0.225
Stream size : 557 MiB (95%)

Audio
ID : 192 (0xC0)
Format : MPEG Audio
Format version : Version 1
Format profile : Layer 2
Mode : Joint stereo
Duration : 6mn 40s
Bit rate mode : Constant
Bit rate : 128 Kbps
Channel(s) : 2 channels
Sampling rate : 48.0 KHz
Stream size : 6.11 MiB (1%)


Трекер:  [ 24-Ноя-2013 22:16 ]

  

Скачать .torrent

Размер .torrent файла 12 KB


Размер: 586 MB
Хэш (hash) релиза: e8431fda6abba48d0e65dbea8de72c7bb655f8a5

Georgx007

:up: :up: :up: :up: :thankyou:

Хотите добавить комментарий к записи скачать торрент [PJGirls.com] Nicol & Gina Devine - An Unexpected Helpmate

!Обратная связь