Deep (2017) | Fear the Walking Dead 4. Sezon 9. Bölüm Fear the Walking Dead 4. Sezon 9. Bölüm 12 Ağu. | Descarga juegos PSP

Скачать порно через торрент [PJGirls.com] Lucy Li - Squirting Teen UnionPeer.org бесплатно онлайн HD качество

Скачать новое порно 2015, 2014 новинки через торрент UnionPeer.org

Порно торрент бесплатно ЮнионПир.орг

Статистика раздачи
Размер:  1.38 GB   |    Зарегистрирован:  4 года 8 месяцев   |    .torrent скачан:  1442 раза   |   
Раздают:  2  
   
загрузка...
 
Автор Сообщение

LinGr

avatar LinGr


Lucy Li - Squirting Teen
PJGirls.com 2013 г.
Solo, Erotic, Masturbation, Dildo, Sex Toys, Close Ups, Breasts, Shaved

Тип HD видео: 1080p
Формат видео: MPEG
Видео кодек: MPEG2
Аудио кодек: MPEG Audio

Продолжительность: 00:16:01
Видео: MPEG Video (MPEG Video 2), 12.3 Mbps, 25.000 fps
Аудио: MPEG Audio (MPEG Audio 2), 128 Kbps, 48.0 KHz

Format : MPEG-PS
File size : 1.38 GiB
Duration : 16mn 1s
Overall bit rate : 12.3 Mbps

Video
ID : 224 (0xE0)
Format : MPEG Video
Format version : Version 2
Format profile : [email protected]
Format settings, BVOP : Yes
Format settings, Matrix : Default
Duration : 16mn 1s
Bit rate mode : Variable
Bit rate : 11.7 Mbps
Nominal bit rate : 15.0 Mbps
Width : 1 920 pixels
Height : 1 080 pixels
Display aspect ratio : 16:9
Frame rate : 25.000 fps
Standard : Component
Resolution : 8 bits
Colorimetry : 4:2:0
Scan type : Interlaced
Scan order : Top Field First
Bits/(Pixel*Frame) : 0.226
Stream size : 1.31 GiB (95%)

Audio
ID : 192 (0xC0)
Format : MPEG Audio
Format version : Version 1
Format profile : Layer 2
Mode : Joint stereo
Duration : 16mn 1s
Bit rate mode : Constant
Bit rate : 128 Kbps
Channel(s) : 2 channels
Sampling rate : 48.0 KHz
Stream size : 14.7 MiB (1%)


Трекер:  [ 24-Ноя-2013 13:55 ]

  

Скачать .torrent

Размер .torrent файла 14 KB


Размер: 1.38 GB
Хэш (hash) релиза: 00c097f72e0b663f032dcf6c988c4794e8985ecc

Еще никто не оставлял запись к записи скачать торрент [PJGirls.com] Lucy Li - Squirting Teen . Будь первым!

!Обратная связь