10,000 Days (2014) | The Little Stranger (2018) 720p BDRip x264 enlace de descarga gratuita | HD 7.7 104 The Greatest Showman (2017)

Скачать порно через торрент [PJGirls.com] Nessy - New Toy UnionPeer.org бесплатно онлайн HD качество

Скачать новое порно 2015, 2014 новинки через торрент UnionPeer.org

Порно торрент бесплатно ЮнионПир.орг

Статистика раздачи
Размер:  1.39 GB   |    Зарегистрирован:  4 года 8 месяцев   |    .torrent скачан:  694 раза   |   
Раздают:  1  
   
загрузка...
 
Автор Сообщение

LinGr

avatar LinGr


Nessy - New Toy
PJGirls.com 2013 г.
Solo, Erotic, Masturbation, Gaping, Fingering, Sex Toys, Close Ups, Breasts, Shaved

Format : MPEG-PS
File size : 1.39 GiB
Duration : 16mn 13s
Overall bit rate : 12.3 Mbps

Video
ID : 224 (0xE0)
Format : MPEG Video
Format version : Version 2
Format profile : [email protected]
Format settings, BVOP : Yes
Format settings, Matrix : Default
Duration : 16mn 13s
Bit rate mode : Variable
Bit rate : 11.7 Mbps
Nominal bit rate : 15.0 Mbps
Width : 1 920 pixels
Height : 1 080 pixels
Display aspect ratio : 16:9
Frame rate : 25.000 fps
Standard : Component
Resolution : 8 bits
Colorimetry : 4:2:0
Scan type : Interlaced
Scan order : Top Field First
Bits/(Pixel*Frame) : 0.225
Stream size : 1.32 GiB (95%)

Audio
ID : 192 (0xC0)
Format : MPEG Audio
Format version : Version 1
Format profile : Layer 2
Mode : Joint stereo
Duration : 16mn 13s
Bit rate mode : Constant
Bit rate : 128 Kbps
Channel(s) : 2 channels
Sampling rate : 48.0 KHz
Stream size : 14.8 MiB (1%)
Тип HD видео: 1080p
Формат видео: MPEG
Видео кодек: MPEG2
Аудио кодек: MPEG Audio

Продолжительность: 00:16:13
Видео: MPEG Video (MPEG Video 2), 12.3 Mbps, 25.000 fps
Аудио: MPEG Audio (MPEG Audio 2), 128 Kbps, 48.0 KHz


Трекер:  [ 19-Ноя-2013 20:21 ]

  

Скачать .torrent

Размер .torrent файла 14 KB


Размер: 1.39 GB
Хэш (hash) релиза: 6775d4ad8325c78e5c4a52bbb050da06c826bcba

Еще никто не оставлял запись к записи скачать торрент [PJGirls.com] Nessy - New Toy . Будь первым!

!Обратная связь