The Unholy Alliance | Os Curados - Legendado Drama / Ficção / Terror Idioma: Inglês 2018 MKV Torrent DownloadVídeo 10 / Áudio 10CompletoSinopse: Um vírus devastador assola um continente por 6 anos transformando os seres humanos em zumbis. A cura foi encontrada, mas a sociedade está dividida...

| Nonton Film Semi168

Скачать порно через торрент [PJGirls.com] Angel Piaff - Fisting Angel UnionPeer.org бесплатно онлайн HD качество

Скачать новое порно 2015, 2014 новинки через торрент UnionPeer.org

Порно торрент бесплатно ЮнионПир.орг

Статистика раздачи
Размер:  962 MB   |    Зарегистрирован:  4 года 9 месяцев   |    .torrent скачан:  916 раз   |   
Раздают:  1  
   
загрузка...
 
Автор Сообщение

LinGr

avatar LinGr


Angel Piaff - Fisting Angel
PJGirls.com 2013 г.
Solo, Erotic, Masturbation, Gaping, Gaping, Fisting, Close Ups, Breasts, Shaved
Format : MPEG-PS
File size : 962 MiB
Duration : 11mn 56s
Overall bit rate : 11.3 Mbps

Video
ID : 224 (0xE0)
Format : MPEG Video
Format version : Version 2
Format profile : [email protected]
Format settings, BVOP : Yes
Format settings, Matrix : Default
Duration : 11mn 56s
Bit rate mode : Variable
Bit rate : 10.7 Mbps
Nominal bit rate : 12.0 Mbps
Width : 1 920 pixels
Height : 1 080 pixels
Display aspect ratio : 16:9
Frame rate : 25.000 fps
Standard : Component
Resolution : 8 bits
Colorimetry : 4:2:0
Scan type : Interlaced
Scan order : Top Field First
Bits/(Pixel*Frame) : 0.206
Stream size : 913 MiB (95%)

Audio
ID : 192 (0xC0)
Format : MPEG Audio
Format version : Version 1
Format profile : Layer 2
Mode : Joint stereo
Duration : 11mn 56s
Bit rate mode : Constant
Bit rate : 128 Kbps
Channel(s) : 2 channels
Sampling rate : 48.0 KHz
Stream size : 10.9 MiB (1%)
Тип HD видео: 1080p
Формат видео: MPEG
Видео кодек: MPEG2
Аудио кодек: MPEG Audio

Продолжительность: 00:11:56
Видео: MPEG Video (MPEG Video 2), 11.3 Mbps, 25.000 fps
Аудио: MPEG Audio (MPEG Audio 2), 128 Kbps, 48.0 KHz



Трекер:  [ 18-Ноя-2013 07:52 ]

  

Скачать .torrent

Размер .torrent файла 19 KB


Размер: 962 MB
Хэш (hash) релиза: 0613cdb66956b5b4f344b6b831ab6612450f9400

Торренты, похожие на [PJGirls.com] Angel Piaff - Fisting Angel скачать торрент

Форум Название Автор Размер S L Добавлен
Фистинг и дилдо ·· [PJgirls.com] 2014-01-15 Angel Piaff, Eveline - Fisting session [2014 г., Fisting, Gaping, Girl-Girl, 1080p] Galfimbul 10813229691.01 GB 0 0 1390729512

12:45

26-Янв-14

Еще никто не оставлял запись к записи скачать торрент [PJGirls.com] Angel Piaff - Fisting Angel . Будь первым!

!Обратная связь