Full TV Series Arthur Cartoon | Anne-Marie - 2002 | No Home for Young Man (2018)

Скачать порно через торрент [PJGirls.com] Marika - Weird Penetrator UnionPeer.org бесплатно онлайн HD качество

Скачать новое порно 2015, 2014 новинки через торрент UnionPeer.org

Порно торрент бесплатно ЮнионПир.орг

Статистика раздачи
Размер:  1.05 GB   |    Зарегистрирован:  4 года 9 месяцев   |    .torrent скачан:  620 раз   |   
Раздают:  1  
   
загрузка...
 
Автор Сообщение

LinGr

avatar LinGr


Marika - Weird Penetrator
PJGirls.com 2013 г.
Solo, Erotic, Masturbation, Gaping, Fingering, Sex Toys, Close Ups, Breasts, Shaved

Тип HD видео: 1080p
Формат видео: MPEG
Видео кодек: MPEG2
Аудио кодек: MPEG Audio

Продолжительность: 00:12:13
Видео: MPEG Video (MPEG Video 2), 12.3 Mbps, 25.000 fps
Аудио: MPEG Audio (MPEG Audio 2), 128 Kbps, 48.0 KHz
Format : MPEG-PS
File size : 1.05 GiB
Duration : 12mn 13s
Overall bit rate : 12.3 Mbps

Video
ID : 224 (0xE0)
Format : MPEG Video
Format version : Version 2
Format profile : [email protected]
Format settings, BVOP : Yes
Format settings, Matrix : Default
Duration : 12mn 13s
Bit rate mode : Variable
Bit rate : 11.7 Mbps
Nominal bit rate : 15.0 Mbps
Width : 1 920 pixels
Height : 1 080 pixels
Display aspect ratio : 16:9
Frame rate : 25.000 fps
Standard : Component
Resolution : 8 bits
Colorimetry : 4:2:0
Scan type : Interlaced
Scan order : Top Field First
Bits/(Pixel*Frame) : 0.225
Stream size : 1 021 MiB (95%)

Audio
ID : 192 (0xC0)
Format : MPEG Audio
Format version : Version 1
Format profile : Layer 2
Mode : Joint stereo
Duration : 12mn 13s
Bit rate mode : Constant
Bit rate : 128 Kbps
Channel(s) : 2 channels
Sampling rate : 48.0 KHz
Stream size : 11.2 MiB (1%)


Трекер:  [ 14-Ноя-2013 19:45 ]

  

Скачать .torrent

Размер .torrent файла 11 KB


Размер: 1.05 GB
Хэш (hash) релиза: ee62727c5741b9d17bdf69bbd3f7495cc280146a

Еще никто не оставлял запись к записи скачать торрент [PJGirls.com] Marika - Weird Penetrator . Будь первым!

!Обратная связь