Download mp3 | Alain Clark - Colorblind [Apple Lossless] | Regarder Le Film

Скачать порно через торрент [PJGirls.com] Gina Devine - Hat Trick UnionPeer.org бесплатно онлайн HD качество

Скачать новое порно 2015, 2014 новинки через торрент UnionPeer.org

Порно торрент бесплатно ЮнионПир.орг

Статистика раздачи
Размер:  1.5 GB   |    Зарегистрирован:  4 года 9 месяцев   |    .torrent скачан:  1102 раза   |   
Раздают:  1  
   
загрузка...
 
Автор Сообщение

LinGr

avatar LinGr


Gina Devine - Hat Trick
PJGirls.com 2013 г.
Solo, Erotic, Masturbation, Gaping, Speculum Play, Fingering, Sex Toys, Close Ups, Breasts, Shaved

Тип HD видео: 1080p
Формат видео: MPEG
Видео кодек: MPEG2
Аудио кодек: MPEG Audio1

Продолжительность: 00:17:29
Видео: MPEG Video (MPEG Video 2), 12.3 Mbps, 25.000 fps
Аудио: MPEG Audio (MPEG Audio 1), 128 Kbps, 48.0 KHz

Format : MPEG-PS
File size : 1.50 GiB
Duration : 17mn 29s
Overall bit rate : 12.3 Mbps

Video
ID : 224 (0xE0)
Format : MPEG Video
Format version : Version 2
Format profile : [email protected]
Format settings, BVOP : Yes
Format settings, Matrix : Default
Duration : 17mn 29s
Bit rate mode : Variable
Bit rate : 11.7 Mbps
Nominal bit rate : 15.0 Mbps
Width : 1 920 pixels
Height : 1 080 pixels
Display aspect ratio : 16:9
Frame rate : 25.000 fps
Standard : Component
Resolution : 8 bits
Colorimetry : 4:2:0
Scan type : Interlaced
Scan order : Top Field First
Bits/(Pixel*Frame) : 0.225
Stream size : 1.43 GiB (95%)

Audio
ID : 192 (0xC0)
Format : MPEG Audio
Format version : Version 1
Format profile : Layer 2
Mode : Joint stereo
Duration : 17mn 29s
Bit rate mode : Constant
Bit rate : 128 Kbps
Channel(s) : 2 channels
Sampling rate : 48.0 KHz
Stream size : 16.0 MiB (1%)


Трекер:  [ 08-Ноя-2013 21:55 ]

  

Скачать .torrent

Размер .torrent файла 15 KB


Размер: 1.5 GB
Хэш (hash) релиза: ade164c1216e9f57b55121f7acf1b24195116b

Еще никто не оставлял запись к записи скачать торрент [PJGirls.com] Gina Devine - Hat Trick . Будь первым!

!Обратная связь